Pocos Megas HD Descargar peliculas gratis

formulario de busqueda

El Origen [BRRIP 1080P] [AUDIO LATINO] [2010]

Dom Cobb (DiCaprio) es un experto en el arte de apropiarse, durante el sueño, de los secretos del subconsciente ajeno. La extraña habilidad de Cobb le ha convertido en un hombre muy cotizado en el mundo del espionaje, pero también lo ha condenado a ser un fugitivo y, por consiguiente, a renunciar a llevar una vida normal. Su única oportunidad para cambiar de vida será hacer exactamente lo contrario de lo que ha hecho siempre: la incepción, que consiste en implantar una idea en el subconsciente en lugar de sustraerla. Sin embargo, su plan se complica debido a la intervención de alguien que parece predecir cada uno de sus movimientos, alguien a quien sólo Cobb podrá descubrir.
  Titulo Original: Inception
Resolución: 1280×534
Formato: Mkv
Idiomas:Latino
Duracion:02:28:08
Tamaño del Archivo: 1.2 GB
Servidor:BitShare-UplaDed-4shared-Putlocker-180UploaD-ZipiShare-BillionUploads
Vip: Links por Servidores Sin acortador
Contraseña:pocosmegashd
“click en las capturas para ver tamaño real”
 
Partes Intercambiables
 
 
Tambien Agradezco Tu Comentario!
 
Que La Disfruten!
 

¿Cansado de la publicidad? Haz clic aquí W1aHbv6 - Imgur

Quizas tambien te interese
  • Pingback: logo design wellington nz()

  • Pingback: obesity prevention()

  • Pingback: custom dvd labels()

  • Pingback: erase herpes review()

  • Pingback: casino promotions()

  • Pingback: home decor()

  • Pingback: flying()

  • Pingback: Bahamas careers Nassau()

  • Pingback: motivational speeches()

  • Javier Taco

    links caidos amigo

  • Hb Geo

    que tal buen dia….sera que puedan trepar de nuevo el linck…de antemano gracias

  • Plz, resubir la de 1 sólo link (uploaded)
    saludos

  • Anonymous

    MUY MUY BUENA PAGINAAAAAA MUY BUENO SEÑORES BUENA PELI

  • Anonymous

    esta pagina es tan increible la acabo de conocer y ya la amo.. excelentes peliculas

  • aca tengo el audio en ingles, tiene el mismo tiempo, http://www.putlocker.com/file/82ED351B032A0E92
    si alguien puede subir el audio en latino… gracias

    • gracias amigo, pero no repitas el comentario…lo publicaremos, saludos!

    • sorry no fue mi intencion… no soy muy entendido en esto de resporder… saludos… sigan asi… buena pagina…

    • jeje a lo que me referia es que todos los comentarios pasan por moderacion, mo hay necesidad de repetirlo
      gracias por el audio saludos

  • Este comentario ha sido eliminado por el autor.

  • Anonymous

    Por cierto para cuándo Djando Unchained?

  • Anonymous

    Hay alguna posibilidad de que puedan subir alguna en ambos audios? Es que me gusta ver las películas en el idioma original pero a mi familia le gustan en audio latino.

  • Anonymous

    Muchas Gracias por la pelicula la esta buscando pero es cierto la pelicula solo biene en español lo cual es perfecto para mi porque asi la esta buscando, pero no trae el audio en ingles pero eso no es importante para mi y la resolucion es de 720p

    General
    Unique ID : 245895928699691273652880351772757394180 (0xB8FDD54E779A3EE3995783FBAAE70304)
    Complete name : E:\Peliculas\Peliculas Accion\Inception (El Origen) 2010 1080p Ingles-Español.mkv
    Format : Matroska
    Format version : Version 2
    File size : 1.12 GiB
    Duration : 2h 28mn
    Overall bit rate : 1 087 Kbps
    Movie name : Inception (El Origen) 2010 1080p Dual – Pocos Megas HD
    Encoded date : UTC 2013-03-23 02:28:30
    Writing application : mkvmerge v5.7.0 (‘The Whirlwind’) built on Jul 8 2012 20:08:51
    Writing library : libebml v1.2.3 + libmatroska v1.3.0

    Video
    ID : 1
    Format : AVC
    Format/Info : Advanced Video Codec
    Format profile : High@L3.1
    Format settings, CABAC : Yes
    Format settings, ReFrames : 4 frames
    Muxing mode : Header stripping
    Codec ID : V_MPEG4/ISO/AVC
    Duration : 2h 28mn
    Bit rate : 894 Kbps
    Width : 1 280 pixels
    Height : 534 pixels
    Display aspect ratio : 2.40:1
    Frame rate mode : Constant
    Frame rate : 23.976 fps
    Color space : YUV
    Chroma subsampling : 4:2:0
    Bit depth : 8 bits
    Scan type : Progressive
    Bits/(Pixel*Frame) : 0.055
    Stream size : 925 MiB (80%)
    Title : http://wWw.PocosMegasHD.blogspot.mx
    Writing library : x264 core 125 r2208 d9d2288
    Default : Yes
    Forced : No

    Audio
    ID : 2
    Format : AC-3
    Format/Info : Audio Coding 3
    Mode extension : CM (complete main)
    Format settings, Endianness : Big
    Muxing mode : Header stripping
    Codec ID : A_AC3
    Duration : 2h 28mn
    Bit rate mode : Constant
    Bit rate : 192 Kbps
    Channel(s) : 2 channels
    Channel positions : Front: L R
    Sampling rate : 44.1 KHz
    Bit depth : 16 bits
    Compression mode : Lossy
    Stream size : 203 MiB (18%)
    Title : Español Latino [wWw.PocosMegasHD.blogspot.mx]- Tu mejor Opcion
    Default : Yes
    Forced : No

    Text
    ID : 3
    Format : UTF-8
    Codec ID : S_TEXT/UTF8
    Codec ID/Info : UTF-8 Plain Text
    Title : Subtitlos Español [wWw.PocosMegasHD.blogspot.mx]
    Default : Yes
    Forced : No

    • gracias por la info amigo, y si pido disculpas por el mal entendido, acabamos de comprobarlo y solo esta en latino
      saludos

  • Estupendo, gracias por compartirla 😉
    Saludos

  • Anonymous

    Buenas, descargué la película y no tiene ambos audios, sólo latino. No es un problema con el reproductor y no es la primera vez que descargo de pocosmehashd. Podrías resolver el problema por favor?

    • Hola amigo, que bien que ya hayas descarga mas pelicula de pocos megas HD pero esta pelicula viene con los 2 audios, yo no la subi, pero vi que mi amigo ponia los 2 audios, deja le pregunto para asegurar, aqui te respondo para que estes tranquilo, mientras checamos lo que comentas, lo que es muy raro por que lleva muchas descargas y eres el primero en quejarse, tal vez pudo ser error de descarga o como es 1080p tu pc no lo soporte tienes lap?
      por que me dijeron que suele pasar, intenta tambien bajar por otro servidor ponemos demasiados jeje, saludos

  • Anonymous

    Muchas Felicitaciones a los creadores de esta pagina, me encanta la pagina, pasare toda esta semana santa viendo peliculas gracias a esta pagina, jejee, una recomendacion suban peliculas mas actuales de este año o el año pasado jeje, saludos!!!

  • GRACIAS! LA ESPERABA VER DESDE HACE MUCHO! SON LOS MEJORES

    • Jejeje Para Estar Mas informado Tambien Dale “Like En La Pagina De Facebook

  • gracias! la queria ver desde hace mucho!

  • que buena pagina por Dios las mejores peliculas estan aqui en pocosmegashd